Music Videos Published by : VnRuEn | Date : 30 October 2013 | Views : 189
Trouble Maker Now (2013)


Trouble Maker Now (2013)


http://i59.fastpic.ru/big/2013/1030/9d/17f74b4a2c8309a14a5a548afd923b9d.jpg

Trouble Maker - Now (2013)
Korean | MP4 | *1080p* 1920x1080 | 29.970 fps | AVC 4091 Kbps | AAC 126 Kbps | 3:42 min | 111 MB
Korean Pop

"Trouble Maker is the first official sub-group of South Koreans groups 4Minute & Beast, formed by Cube Entertainment in 2011. The sub-group is composed of Hyuna & Hyunseung."


Trouble Maker Now (2013)

General
Complete name : Trouble_Maker_-_Now_MV_1080.mp4
Format : MPEG-4
Format profile : Base Media
Codec ID : isom
File size : 112 MiB
Duration : 3mn 42s
Overall bit rate : 4 223 Kbps
Writing application : Lavf55.19.102

Video
ID : 1
Format : AVC
Format/Info : Advanced Video Codec
Format profile : [email protected]
Format settings, CABAC : Yes
Format settings, ReFrames : 2 frames
Codec ID : avc1
Codec ID/Info : Advanced Video Coding
Duration : 3mn 42s
Bit rate : 4 091 Kbps
Width : 1 920 pixels
Height : 1 080 pixels
Display aspect ratio : 16:9
Frame rate mode : Variable
Frame rate : 29.970 fps
Minimum frame rate : 29.970 fps
Maximum frame rate : 5 000.000 fps
Color space : YUV
Chroma subsampling : 4:2:0
Bit depth : 8 bits
Scan type : Progressive
Bits/(Pixel*Frame) : 0.066
Stream size : 108 MiB (97%)

Audio
ID : 2
Format : AAC
Format/Info : Advanced Audio Codec
Format profile : LC
Codec ID : 40
Duration : 3mn 42s
Bit rate mode : Constant
Bit rate : 126 Kbps
Channel(s) : 2 channels
Channel positions : Front: L R
Sampling rate : 44.1 KHz
Compression mode : Lossy
Delay relative to video : -3s 3ms
Stream size : 3.33 MiB (3%)

Screenshots:
http://i60.fastpic.ru/big/2013/1030/69/9a67d0384efb02dd12df0f1585a53769.jpg
http://i60.fastpic.ru/big/2013/1030/de/fd8e2da6395b75afb6201321bacbd3de.jpg
http://i57.fastpic.ru/big/2013/1030/1b/75173ec05272e703dcc56a7fbb8c151b.jpg
http://i58.fastpic.ru/big/2013/1030/be/0dbccd197550f829967e84bf3be17abe.jpg
http://i59.fastpic.ru/big/2013/1030/6c/9859fd3ff695ac122b6079a61652d56c.jpg
http://i60.fastpic.ru/big/2013/1030/f1/b327ee4ba0fa05e30b7606aa1ce328f1.jpg
http://i58.fastpic.ru/big/2013/1030/0c/15ba2044558138c1240e47f2098d7f0c.jpg
http://i60.fastpic.ru/big/2013/1030/c4/5bfe7bb73e6d5bca950f7f95f6fe3ec4.jpg

Please send me PM if any of my links is broken.

|

or

or






Click below for FREE Download

Bookmark and Share This Post :

Please feel free to post your Trouble Maker Now (2013) Download, Movie, Game, Software, Mp3, video, subtitle, sample, torrent, NFO, Crack, uploaded, putlocker, Rapidgator, mediafire, Netload, Zippyshare, Extabit, 4shared, Serial, keygen, Watch online, requirements or whatever-related comments here.

Comments (0)
Please Login or Create a FREE Account to Post Comments


Information
Members of Guest cannot leave comments.